<svg xmlns="http://www.w3.org/2000/svg">
<defs>
<font
   id="FontID1"
   horiz-adv-x="666"
   font-variant="normal"
   font-style="normal"
   font-weight="400"
   horiz-origin-x="0"
   horiz-origin-y="0"
   vert-origin-x="45"
   vert-origin-y="90"
   vert-adv-y="90">
	<font-face
   font-family="Arial"
   id="font-face2">
	</font-face>
   <missing-glyph
   id="missing-glyph6"><path
     d="M0 0z"
     id="path4" /></missing-glyph>
   <glyph
   unicode="D"
   horiz-adv-x="722"
   id="glyph10"><path
     d="M77.0079 0l0 716 246.646 0c55.685,0 98.1732,-3.33858 127.528,-10.1732 40.9764,-9.48031 76,-26.6457 104.976,-51.3386 37.8583,-32 66.0157,-72.6614 84.6614,-122.331 18.8346,-49.6693 28.189,-106.488 28.189,-170.331 0,-54.3307 -6.33071,-102.488 -18.9921,-144.504 -12.6929,-41.9843 -29.0079,-76.8189 -48.8504,-104.315 -20,-27.4961 -41.6693,-49.1654 -65.3228,-64.8504 -23.4961,-15.811 -52,-27.811 -85.3543,-36 -33.4803,-8.15748 -71.811,-12.1575 -115.15,-12.1575l-258.331 0zm94.9921 84l152.661 0c47.1811,0 84.1575,4.34646 110.992,13.1654 26.8346,8.85039 48.189,21.1654 64.189,37.1654 22.3307,22.4882 39.811,52.8504 52.315,90.8346 12.5039,38.0157 18.8346,84 18.8346,138.173 0,74.9921 -12.315,132.661 -36.8189,173.008 -24.5039,40.315 -54.3307,67.3071 -89.5118,80.9764 -25.3228,9.85827 -66.1732,14.6772 -122.488,14.6772l-150.173 0 0 -548z"
     id="path8" /></glyph>
   <glyph
   unicode="»"
   horiz-adv-x="556"
   id="glyph14"><path
     d="M386.016 257.512l-129.008 222.488 72 0 157.984 -222.488 -156.976 -222.52 -72 0 128 222.52zm-189.008 0l-130.016 222.488 74.0157 0 153.984 -222.488 -153.984 -222.52 -74.0157 0 130.016 222.52z"
     id="path12" /></glyph>
   <glyph
   unicode="⌐"
   horiz-adv-x="584"
   id="glyph18"><path
     d="M54.9921 206.992l0 296 473.008 0 0 -81.9843 -389.984 0 0 -214.016 -83.0236 0z"
     id="path16" /></glyph>
   <glyph
   unicode="c"
   horiz-adv-x="500"
   id="glyph22"><path
     d="M404.981 189.999l86.0231 -11.9813c-9.48673,-59.1881 -33.487,-105.337 -72.3411,-138.862 -38.8162,-33.487 -86.6657,-50.155 -143.17,-50.155 -70.8292,0 -127.825,23.1688 -170.837,69.5064 -43.1627,46.3376 -64.6685,112.669 -64.6685,198.995 0,56.0133 9.33555,104.845 27.8555,146.836 18.4821,41.8399 46.64,73.3238 84.6625,94.1492 37.8335,21.0144 78.9931,31.5217 123.668,31.5217 56.1645,0 102.313,-14.1734 137.992,-42.6714 35.8304,-28.498 58.848,-69.015 68.8261,-121.324l-85.0026 -13.0017c-8.16388,34.8099 -22.4885,61.0023 -43.3139,78.653 -20.6743,17.4994 -45.6573,26.3436 -75.0246,26.3436 -44.3344,0 -80.316,-15.8364 -108.134,-47.5093 -27.6665,-31.824 -41.4997,-81.8278 -41.4997,-150.503 0,-69.6576 13.3041,-120.153 39.9879,-151.674 26.835,-31.4839 61.6449,-47.3203 104.505,-47.3203 34.6587,0 63.4969,10.5072 86.4767,31.6728 23.1688,20.9766 37.8335,53.481 43.9943,97.3241z"
     id="path20" /></glyph>
   <glyph
   unicode="Γ"
   horiz-adv-x="550"
   id="glyph26"><path
     d="M78.9921 716l449.008 0 0 -84 -353.984 0 0 -632 -95.0236 0 0 716z"
     id="path24" /></glyph>
   <glyph
   unicode="R"
   horiz-adv-x="722"
   id="glyph30"><path
     d="M78.9921 0l0 716 317.354 0c63.811,0 112.315,-6.48819 145.48,-19.3386 33.1654,-12.8189 59.685,-35.4961 79.4961,-68 19.8425,-32.5039 29.6693,-68.5039 29.6693,-107.843 0,-50.8031 -16.5039,-93.6378 -49.3228,-128.472 -32.8504,-34.8346 -83.4961,-56.8504 -152.157,-66.3307 25.1654,-12 44.1575,-24 57.1654,-35.685 27.6535,-25.3228 53.8268,-57.1654 78.3307,-95.3386l123.811 -194.992 -118.331 0 -94.6457 149.008c-27.4961,43.1496 -50.3307,76 -68.189,98.8346 -17.9843,22.8346 -33.9843,38.6457 -48.1575,47.811 -13.9843,9.00787 -28.5039,15.3386 -43.1496,19.0236 -10.6772,2.14173 -28.189,3.33858 -52.6929,3.33858l-109.638 0 0 -318.016 -95.0236 0zm95.0236 400l203.307 0c43.3386,0 77.0079,4.50394 101.354,13.5118 24.315,8.8189 42.8346,23.1496 55.3386,42.9921 12.6614,19.6535 18.9921,41.0079 18.9921,64.1575 0,33.8268 -12.189,61.8268 -36.6614,83.685 -24.5039,21.8268 -63.1811,32.6614 -116,32.6614l-226.331 0 0 -237.008z"
     id="path28" /></glyph>
   <glyph
   unicode="ε"
   horiz-adv-x="445"
   id="glyph34"><path
     d="M406.016 459.843l-63.0236 -50.8346c-40.315,29.9843 -77.9843,45.0079 -112.976,45.0079 -28.8504,0 -49.8583,-7.52756 -63.1811,-22.6772 -13.1654,-15.1811 -19.8425,-31.4961 -19.8425,-49.0079 0,-22.4882 9.82677,-41.3228 29.5118,-56.315 19.8425,-15.0236 48.6614,-22.5197 86.8346,-22.5197 5.00787,0 13.1654,0.15748 24.6614,0.503937l0 -73.9843c-10.6772,0.314961 -18.4882,0.472441 -23.8425,0.472441 -47.3386,0 -80.1575,-8.97638 -98.6457,-26.8346 -18.3307,-17.9843 -27.4961,-38.1417 -27.4961,-60.6614 0,-22.9921 9.16535,-42.4882 27.6535,-58.3307 18.4882,-15.8425 40.5039,-23.6535 65.8268,-23.6535 46.5197,0 90.0157,21.3228 130.52,64l62.9921 -53.1654c-52.3465,-55.1811 -117.354,-82.8346 -195.181,-82.8346 -61.0079,0 -106.646,15.4961 -136.661,46.3307 -30.1732,30.9921 -45.1654,66.9921 -45.1654,108 0,58.8346 28.6614,100.661 85.8268,125.323 -47.811,26.9921 -71.811,64.1575 -71.811,111.496 0,38.5197 14.1417,73.1654 42.6457,103.843 28.3465,30.6772 72,46.0157 130.835,46.0157 67.3386,0 124.157,-23.3386 170.52,-70.1732z"
     id="path32" /></glyph>
   <glyph
   unicode="φ"
   horiz-adv-x="648"
   id="glyph38"><path
     d="M242.992 530.016l-17.1654 -76c-67.1496,-22.5197 -100.819,-81.3543 -100.819,-176.693 0,-50.4882 13.1654,-95.4961 39.6535,-134.992 26.3307,-39.4961 65.8268,-65.0079 118.331,-76.315l0 320.976c0,34.3307 2.51969,60.8504 7.33858,79.4961 4.85039,18.6772 16,34.0157 33.5118,45.8583 17.4803,11.811 41.1654,17.6693 71.1496,17.6693 46.5197,0 84.5039,-9.35433 113.669,-28.189 29.1654,-18.8346 53.8268,-48.6614 74.0157,-89.1654 20.1575,-40.6614 30.3307,-84.315 30.3307,-130.992 0,-38.9921 -8,-78.0157 -23.8425,-117.165 -16,-38.9921 -41.6693,-74.9921 -77.5118,-107.843 -35.6535,-32.8189 -82.4882,-55.3386 -140.661,-67.6535l0 -188 -88 0 0 188c-60.315,0 -116.661,26.4882 -169.165,79.6535 -52.5039,53.0079 -78.8346,121.165 -78.8346,204.504 0,77.1654 21.0079,139.496 63.0236,187.339 42.1417,47.6535 90.4882,70.8346 144.976,69.5118zm128 -460c41.1654,7.49606 76.5039,30.4882 106.016,68.9764 29.3228,38.5197 44,89.0079 44,151.496 0,57.8583 -10.6772,100.189 -32.189,126.677 -21.3228,26.4882 -44.1575,39.8425 -68.1575,39.8425 -17.1654,0 -29.8268,-5.82677 -37.6693,-17.6693 -8,-11.8425 -12,-37.8268 -12,-78.0157l0 -291.307z"
     id="path36" /></glyph>
   <glyph
   unicode="t"
   horiz-adv-x="277"
   id="glyph42"><path
     d="M257.011 78.5018l11.9813 -77.6703c-24.6428,-5.17802 -46.8289,-7.82372 -66.1426,-7.82372 -31.8618,0 -56.5046,4.98904 -74.1931,15.1561 -17.4994,10.1671 -29.8208,23.32 -37.002,39.8367 -7.1434,16.5167 -10.6584,51.1754 -10.6584,104.014l0 299.002 -65.0087 0 0 67.9946 65.0087 0 0 128.317 87.9885 52.8385 0 -181.155 88.0263 0 0 -67.9946 -88.0263 0 0 -304.029c0,-25.172 1.51183,-41.3108 4.68667,-48.4919 2.98586,-7.18119 8.0127,-12.8128 15.0049,-17.1593 6.99221,-4.15753 17.0081,-6.34969 29.972,-6.34969 9.67571,0 22.5263,1.17167 38.3627,3.515z"
     id="path40" /></glyph>
   <glyph
   unicode="µ"
   horiz-adv-x="576"
   id="glyph46"><path
     d="M497.009 519.007l0 -519.007 -78.0112 0 0 62.9872c-17.0082,-26.1644 -33.8181,-44.1648 -50.3444,-53.8311 -22.8194,-13.4932 -49.494,-20.1548 -79.8254,-20.1548 -27.1565,0 -50.9964,5.32925 -72.0016,16.1578 -15.6476,8.16396 -32.8259,24.1801 -51.8185,48.3318l0 -252.487 -88.0177 0 0 718.003 88.0177 0 0 -219.18c0,-79.4852 4.16702,-130.992 12.6711,-154.662 8.47578,-23.4997 22.3092,-42.0104 41.33,-55.6737 19.1626,-13.6633 40.9899,-20.4949 65.8219,-20.4949 25.9943,0 49.3239,7.17181 69.9889,21.5154 20.5233,14.1452 35.0086,32.6558 43.5128,55.1634 8.50412,22.6493 12.6711,73.504 12.6711,152.649l0 220.682 86.005 0z"
     id="path44" /></glyph>
   <glyph
   unicode="-"
   horiz-adv-x="333"
   id="glyph50"><path
     d="M30.9921 214.992l0 88 272 0 0 -88 -272 0z"
     id="path48" /></glyph>
   <glyph
   unicode="σ"
   horiz-adv-x="617"
   id="glyph54"><path
     d="M596 518.992l0 -70.9921 -142.835 0c43.1811,-40.3465 64.8504,-103.181 64.8504,-188.504 0,-92.8189 -23.685,-161.008 -71.0236,-204.819 -47.1496,-43.8425 -104.661,-65.6693 -172.157,-65.6693 -70.3307,0 -128.157,22.6457 -173.669,68.1575 -45.5118,45.5118 -68.1575,113.008 -68.1575,202.331 0,92 23.6535,160 70.8346,204.157 47.3386,44.189 104.157,66.3622 170.835,66.3622 24.315,0 52,-3.68504 82.8346,-11.0236l238.488 0zm-323.181 -61.9843c-42.4882,0 -78.1417,-16.5039 -106.803,-49.6693 -28.6929,-33.1654 -43.0236,-82.6772 -43.0236,-148.504 0,-65.6693 14.0157,-114.992 42.0157,-148.157 28.1575,-33.1654 64.5039,-49.6693 109.323,-49.6693 46.9921,0 84.3465,17.3228 112,51.811 27.8425,34.6772 41.6693,83.5276 41.6693,146.52 0,57.3228 -12.6614,104.661 -38.1732,141.827 -25.4803,37.1654 -64.5039,55.8425 -117.008,55.8425z"
     id="path52" /></glyph>
   <glyph
   unicode="¡"
   horiz-adv-x="332"
   id="glyph58"><path
     d="M218.329 519.007l0 -100.009 -101.001 0 0 100.009 101.001 0zm-22.9895 -178.02l26.9864 -379.142 0 -158.857 -108.995 0 0 158.857 25.0021 379.142 57.006 0z"
     id="path56" /></glyph>
   <glyph
   unicode="²"
   horiz-adv-x="333"
   id="glyph62"><path
     d="M12 358.016c2.01575,18.4882 9.66929,37.1654 22.9921,55.6535 20.5039,28 54.3307,58.9921 101.354,93.0079 46.8346,33.9843 74.8346,55.811 83.4961,65.6693 12.1575,13.3228 18.1732,26.9921 18.1732,40.9764 0,15.685 -5.66929,28.5039 -17.0079,38.5197 -11.3386,10.1732 -28,15.1496 -50.1732,15.1496 -21.3228,0 -37.3228,-3.81102 -47.8425,-11.4961 -10.4882,-7.65354 -19.1496,-22.4882 -25.9843,-44.5039l-74.0157 8c9.35433,36.3465 25.6693,63.0236 48.8504,80.189 23.3386,17.1654 56.6614,25.8268 100,25.8268 48.9764,0 84.9764,-9.66929 107.811,-29.0079 22.8346,-19.1811 34.3622,-42.8346 34.3622,-70.6772 0,-27.3071 -9.51181,-53.3228 -28.6929,-77.9843 -14.4882,-18.1732 -47.6535,-46.1732 -99.3071,-83.8425 -27.0236,-19.8425 -46.0157,-35.6535 -57.3543,-47.4961l186.331 0 0 -57.9843 -302.992 0z"
     id="path60" /></glyph>
   <glyph
   unicode="n"
   horiz-adv-x="556"
   id="glyph66"><path
     d="M65.9914 0l0 519.011 78.9931 0 0 -73.6639c38.0225,56.5046 93.0153,84.6625 164.865,84.6625 31.3327,0 59.9819,-5.66936 86.1365,-16.8569 26.1925,-11.1497 45.8462,-26.0035 58.848,-44.1454 13.0017,-18.1798 22.1483,-39.8367 27.3263,-64.8575 3.17484,-16.3278 4.83786,-44.8258 4.83786,-85.494l0 -318.656 -87.9885 0 0 315.33c0,35.8304 -3.32603,62.6654 -10.1671,80.3538 -6.84103,17.6506 -19.0113,31.824 -36.3595,42.4824 -17.3105,10.5072 -37.8335,15.8364 -61.1535,15.8364 -37.3422,0 -69.5064,-11.8301 -96.6815,-35.6792 -27.1373,-23.6601 -40.6304,-68.8261 -40.6304,-135.158l0 -283.166 -88.0263 0z"
     id="path64" /></glyph>
   <glyph
   unicode="'"
   horiz-adv-x="191"
   id="glyph70"><path
     d="M67.4944 462.993l-22.5076 133.515 0 119.483 100.009 0 0 -119.483 -23.4997 -133.515 -54.0012 0z"
     id="path68" /></glyph>
   <glyph
   unicode="ó"
   horiz-adv-x="556"
   id="glyph74"><path
     d="M33.0079 259.496c0,95.8425 26.6457,166.835 80.1575,213.008 44.5039,38.3307 98.9921,57.5118 163.181,57.5118 71.1496,0 129.48,-23.3386 174.835,-70.0157 45.1654,-46.4882 67.811,-110.992 67.811,-193.165 0,-66.6772 -9.98425,-118.992 -29.9843,-157.165 -20,-38.1732 -49.1654,-67.8425 -87.4961,-89.0079 -38.1732,-21.1654 -80,-31.6535 -125.165,-31.6535 -72.6929,0 -131.339,23.1496 -176.189,69.6693 -44.8189,46.4882 -67.1496,113.48 -67.1496,200.819zm89.9843 -0.15748c0,-66.3307 14.5197,-116 43.4961,-148.85 29.1654,-32.9764 65.6693,-49.4803 109.858,-49.4803 43.6535,0 80,16.5039 109.165,49.6693 28.9764,33.1654 43.4961,83.6535 43.4961,151.496 0,64 -14.6772,112.504 -43.8425,145.323 -29.1654,33.0079 -65.5118,49.5118 -108.819,49.5118 -44.189,0 -80.6929,-16.3465 -109.858,-49.1654 -28.9764,-32.8504 -43.4961,-82.3307 -43.4961,-148.504zm80 323.654l64 137.008 116 0 -106.992 -137.008 -73.0079 0z"
     id="path72" /></glyph>
   <glyph
   unicode="Ω"
   horiz-adv-x="747"
   id="glyph78"><path
     d="M46.9921 84l155.024 0c-98.0157,82.6772 -147.024,183.654 -147.024,302.992 0,64.8504 13.0079,122.835 39.0236,174.331 26.1417,51.4961 62.9921,92.189 110.488,122.016 47.4961,29.8268 104.661,44.6614 171.496,44.6614 66.0157,0 121.165,-13.6693 165.323,-41.0079 44.189,-27.3386 80.5039,-66.6457 109.008,-117.827 28.5039,-51.1496 42.6772,-111.843 42.6772,-182.173 0,-119.339 -49.3543,-220.315 -148,-302.992l156 0 0 -84 -278.016 0 0 78.9921c114.677,54.0157 172,151.843 172,293.512 0,79.8425 -20.315,145.512 -61.1654,197.165 -40.8189,51.4961 -93.8268,77.3228 -159.15,77.3228 -67.1811,0 -121.008,-25.9843 -161.165,-77.8268 -40.3465,-52 -60.5039,-115.843 -60.5039,-191.843 0,-143.496 57.3228,-242.992 172,-298.331l0 -78.9921 -278.016 0 0 84z"
     id="path76" /></glyph>
   <glyph
   unicode="C"
   horiz-adv-x="722"
   id="glyph82"><path
     d="M586.992 251.181l95.0236 -24c-19.8425,-77.8583 -55.5276,-137.008 -107.024,-177.858 -51.4961,-40.8189 -114.488,-61.3228 -188.976,-61.3228 -77.0079,0 -139.685,15.6535 -188,47.1811 -48.3465,31.3071 -85.0079,76.8189 -110.173,136.315 -25.1654,59.685 -37.8268,123.496 -37.8268,191.843 0,74.4882 14.1417,139.496 42.6457,194.992 28.5039,55.4961 69.0079,97.6693 121.512,126.488 52.5039,28.8504 110.331,43.1811 173.323,43.1811 71.685,0 131.843,-18.1732 180.504,-54.6772 48.8189,-36.5039 82.8346,-87.6535 102.016,-153.669l-93.0079 -21.9843c-16.5039,52 -40.6614,89.9843 -72.189,113.669 -31.4961,23.8425 -71.1496,35.6535 -118.992,35.6535 -54.8346,0 -100.819,-13.1654 -137.669,-39.4961 -36.8189,-26.3307 -62.8346,-61.8268 -77.6693,-106.173 -14.9921,-44.5039 -22.4882,-90.3307 -22.4882,-137.48 0,-60.8504 8.8189,-114.016 26.4882,-159.339 17.6693,-45.5118 45.1654,-79.3386 82.5197,-101.827 37.3228,-22.5197 77.6693,-33.6693 121.165,-33.6693 53.0079,0 97.6693,15.3386 134.331,45.8268 36.6614,30.6772 61.5118,76 74.4882,136.346z"
     id="path80" /></glyph>
   <glyph
   unicode="í"
   horiz-adv-x="277"
   id="glyph86"><path
     d="M97.0079 0l0 518.992 88 0 0 -518.992 -88 0zm-29.0079 582.992l64 137.008 116 0 -106.992 -137.008 -73.0079 0z"
     id="path84" /></glyph>
   <glyph
   unicode="e"
   horiz-adv-x="556"
   id="glyph90"><path
     d="M419.986 168.002l91.0122 -12.019c-14.1734,-52.8007 -40.6682,-93.998 -79.3333,-123.139 -38.6651,-29.1783 -87.9885,-43.8431 -148.159,-43.8431 -75.6671,0 -135.687,23.32 -180.021,69.9977 -44.3344,46.4888 -66.4827,111.989 -66.4827,196.16 0,87.0058 22.3373,154.66 67.1631,202.661 44.8258,48.1896 102.993,72.1899 174.503,72.1899 69.1662,0 125.671,-23.509 169.514,-70.6781 43.8053,-47.1691 65.8024,-113.501 65.8024,-198.995 0,-5.17802 -0.151183,-13.0017 -0.491345,-23.32l-386.499 0c3.32603,-56.8448 19.3514,-100.499 48.3408,-130.698 28.8382,-30.161 65.0087,-45.3171 108.171,-45.3171 32.1642,0 59.6795,8.50404 82.3191,25.5121 22.8286,16.9703 40.8572,44.1454 54.1613,81.4876zm-288.004 141.016l289.024 0c-3.85517,43.6541 -15.0049,76.3096 -33.1847,98.1556 -27.8177,33.8272 -64.1394,50.8353 -108.663,50.8353 -40.3281,0 -74.1553,-13.4931 -101.671,-40.517 -27.3263,-26.9862 -42.4824,-63.1567 -45.5061,-108.474z"
     id="path88" /></glyph>
   <glyph
   unicode="δ"
   horiz-adv-x="556"
   id="glyph94"><path
     d="M85.0079 716l392 0 0 -72 -274.016 0c32.5039,-33.1654 83.4961,-73.8268 152.85,-121.827 61.8268,-42.8346 104.976,-82.5197 129.48,-119.181 24.5039,-36.8189 36.6929,-86.4882 36.6929,-149.165 0,-84 -22.6772,-149.165 -68.189,-195.496 -45.4803,-46.1732 -104.819,-69.3228 -177.827,-69.3228 -79.8425,0 -140,25.9843 -180.346,77.8268 -40.4724,52 -60.6614,113.669 -60.6614,185.165 0,82.9921 21.3543,146.488 64,190.173 42.8346,43.6535 93.8268,66.4882 153.165,68.8189 -30.3307,21.1654 -85.9843,68.189 -167.15,140.85l0 64.1575zm40 -465.165c0,-55.1811 14.6457,-100.661 43.811,-136.346 29.1969,-35.6535 66.5197,-53.4803 111.843,-53.4803 39.8425,0 74.9921,15.1496 105.512,45.6693 30.4882,30.4882 45.8268,78.6457 45.8268,144.661 0,61.0079 -14.4882,108.157 -43.4961,141.48 -29.1654,33.5118 -65.6693,50.1732 -109.669,50.1732 -48.6614,0 -86.4882,-18.8346 -113.512,-56.5039 -26.8346,-37.4803 -40.315,-82.8346 -40.315,-135.654z"
     id="path92" /></glyph>
   <glyph
   unicode="▒"
   horiz-adv-x="708"
   id="glyph98"><path
     d="M50.339 910.165l60.4965 0 0 -60.9926 -60.4965 0 0 60.9926zm121.489 0l60.6619 0 0 -60.9926 -60.6619 0 0 60.9926zm121.678 0l60.9926 0 0 -60.9926 -60.9926 0 0 60.9926zm121.489 0l61.0162 0 0 -60.9926 -61.0162 0 0 60.9926zm122.174 0l60.4965 0 0 -60.9926 -60.4965 0 0 60.9926zm121.489 0l60.4965 0 0 -60.9926 -60.4965 0 0 60.9926zm-669.336 -121.655l61.0162 0 0 -61.0162 -61.0162 0 0 61.0162zm121.513 0l60.9926 0 0 -61.0162 -60.9926 0 0 61.0162zm121.655 0l61.0162 0 0 -61.0162 -61.0162 0 0 61.0162zm122.009 0l60.4965 0 0 -61.0162 -60.4965 0 0 61.0162zm121.513 0l61.158 0 0 -61.0162 -61.158 0 0 61.0162zm121.655 0l60.9926 0 0 -61.0162 -60.9926 0 0 61.0162zm-547.327 -121.513l60.4965 0 0 -60.9926 -60.4965 0 0 60.9926zm121.489 0l60.6619 0 0 -60.9926 -60.6619 0 0 60.9926zm121.678 0l60.9926 0 0 -60.9926 -60.9926 0 0 60.9926zm121.489 0l61.0162 0 0 -60.9926 -61.0162 0 0 60.9926zm122.174 0l60.4965 0 0 -60.9926 -60.4965 0 0 60.9926zm121.489 0l60.4965 0 0 -60.9926 -60.4965 0 0 60.9926zm-669.336 -122.009l61.0162 0 0 -60.6619 -61.0162 0 0 60.6619zm121.513 0l60.9926 0 0 -60.6619 -60.9926 0 0 60.6619zm121.655 0l61.0162 0 0 -60.6619 -61.0162 0 0 60.6619zm122.009 0l60.4965 0 0 -60.6619 -60.4965 0 0 60.6619zm121.513 0l61.158 0 0 -60.6619 -61.158 0 0 60.6619zm121.655 0l60.9926 0 0 -60.6619 -60.9926 0 0 60.6619zm-547.327 -121.655l60.4965 0 0 -60.9926 -60.4965 0 0 60.9926zm121.489 0l60.6619 0 0 -60.9926 -60.6619 0 0 60.9926zm121.678 0l60.9926 0 0 -60.9926 -60.9926 0 0 60.9926zm121.489 0l61.0162 0 0 -60.9926 -61.0162 0 0 60.9926zm122.174 0l60.4965 0 0 -60.9926 -60.4965 0 0 60.9926zm121.489 0l60.4965 0 0 -60.9926 -60.4965 0 0 60.9926zm-669.336 -121.489l61.0162 0 0 -61.1816 -61.0162 0 0 61.1816zm243.167 0l61.0162 0 0 -61.1816 -61.0162 0 0 61.1816zm122.009 0l60.4965 0 0 -61.1816 -60.4965 0 0 61.1816zm121.513 0l61.158 0 0 -61.1816 -61.158 0 0 61.1816zm121.655 0l60.9926 0 0 -61.1816 -60.9926 0 0 61.1816zm-486.831 0l60.9926 0 0 -61.1816 -60.9926 0 0 61.1816zm547.823 -121.678l60.4965 0 0 -60.9926 -60.4965 0 0 60.9926zm-121.489 0l60.4965 0 0 -60.9926 -60.4965 0 0 60.9926zm-122.174 0l61.0162 0 0 -60.9926 -61.0162 0 0 60.9926zm-121.489 0l60.9926 0 0 -60.9926 -60.9926 0 0 60.9926zm-121.678 0l60.6619 0 0 -60.9926 -60.6619 0 0 60.9926zm-121.489 0l60.4965 0 0 -60.9926 -60.4965 0 0 60.9926zm-61.0162 -122.009l61.0162 0 0 -60.6619 -61.0162 0 0 60.6619zm121.513 0l60.9926 0 0 -60.6619 -60.9926 0 0 60.6619zm121.655 0l61.0162 0 0 -60.6619 -61.0162 0 0 60.6619zm122.009 0l60.4965 0 0 -60.6619 -60.4965 0 0 60.6619zm121.513 0l61.158 0 0 -60.6619 -61.158 0 0 60.6619zm121.655 0l60.9926 0 0 -60.6619 -60.9926 0 0 60.6619zm60.9926 -121.655l60.4965 0 0 -60.9926 -60.4965 0 0 60.9926zm-121.489 0l60.4965 0 0 -60.9926 -60.4965 0 0 60.9926zm-122.174 0l61.0162 0 0 -60.9926 -61.0162 0 0 60.9926zm-121.489 0l60.9926 0 0 -60.9926 -60.9926 0 0 60.9926zm-121.678 0l60.6619 0 0 -60.9926 -60.6619 0 0 60.9926zm-121.489 0l60.4965 0 0 -60.9926 -60.4965 0 0 60.9926zm-61.0162 -121.513l61.0162 0 0 -61.158 -61.0162 0 0 61.158zm121.513 0l60.9926 0 0 -61.158 -60.9926 0 0 61.158zm121.655 0l61.0162 0 0 -61.158 -61.0162 0 0 61.158zm122.009 0l60.4965 0 0 -61.158 -60.4965 0 0 61.158zm121.513 0l61.158 0 0 -61.158 -61.158 0 0 61.158zm121.655 0l60.9926 0 0 -61.158 -60.9926 0 0 61.158z"
     id="path96" /></glyph>
   <glyph
   unicode="_"
   horiz-adv-x="556"
   id="glyph102"><path
     d="M-15.0001 -198.994l0 63.0005 582.005 0 0 -63.0005 -582.005 0z"
     id="path100" /></glyph>
   <glyph
   unicode="m"
   horiz-adv-x="833"
   id="glyph106"><path
     d="M66.0157 0l0 518.992 78.9921 0 0 -73.3228c16.1575,25.3228 37.8268,45.8268 64.8189,61.1654 26.9921,15.4961 57.6693,23.1811 92.189,23.1811 38.3307,0 69.8268,-8 94.3307,-23.8425 24.4724,-16 41.8268,-38.1732 51.811,-66.8346 41.3543,60.5039 94.8346,90.6772 160.85,90.6772 51.6535,0 91.4961,-14.1732 119.15,-42.6772 27.8425,-28.5039 41.8583,-72.3465 41.8583,-131.496l0 -355.843 -88 0 0 326.677c0,34.9921 -3.02362,60.315 -8.69291,75.811 -5.66929,15.5276 -16,27.8425 -31.1496,37.3543 -14.9921,9.48031 -32.6614,14.1732 -52.8504,14.1732 -36.6614,0 -66.9921,-12.189 -91.1496,-36.3465 -24.1575,-24.3465 -36.1575,-63.1811 -36.1575,-116.504l0 -301.165 -88 0 0 336.819c0,39.0236 -7.1811,68.3465 -21.5118,87.8425 -14.3307,19.4961 -37.8268,29.3543 -70.3307,29.3543 -24.6614,0 -47.4961,-6.51969 -68.5039,-19.5276 -21.0079,-12.9764 -36.1575,-32 -45.6693,-57.1654 -9.32283,-24.9764 -13.9843,-61.1654 -13.9843,-108.315l0 -269.008 -88 0z"
     id="path104" /></glyph>
   <glyph
   unicode="±"
   horiz-adv-x="548"
   id="glyph110"><path
     d="M232 126.992l0 196 -194.992 0 0 82.0157 194.992 0 0 194.992 82.9921 0 0 -194.992 195.024 0 0 -82.0157 -195.024 0 0 -196 -82.9921 0zm278.016 -126.992l-473.008 0 0 82.0157 473.008 0 0 -82.0157z"
     id="path108" /></glyph>
   <glyph
   unicode="H"
   horiz-adv-x="722"
   id="glyph114"><path
     d="M80.9963 0l0 716.003 95.0185 0 0 -294.996 369.983 0 0 294.996 95.0185 0 0 -716.003 -95.0185 0 0 336.987 -369.983 0 0 -336.987 -95.0185 0z"
     id="path112" /></glyph>
   <glyph
   unicode="«"
   horiz-adv-x="556"
   id="glyph118"><path
     d="M166.001 257.505l126.995 -222.496 -71.0094 0 -156.986 222.496 156.986 222.496 72.0016 0 -127.987 -222.496zm188.99 0l130 -222.496 -73.9859 0 -154.01 222.496 154.01 222.496 73.9859 0 -130 -222.496z"
     id="path116" /></glyph>
   <glyph
   unicode="V"
   horiz-adv-x="666"
   id="glyph122"><path
     d="M281.011 0l-276.665 716.003 102.653 0 185.993 -520.334c14.8537,-41.6509 27.5153,-80.6561 37.4934,-117.167 10.9986,39.1564 23.8491,78.1616 38.5139,117.167l192.985 520.334 96.6815 0 -279.159 -716.003 -98.4957 0z"
     id="path120" /></glyph>
   <glyph
   unicode="g"
   horiz-adv-x="556"
   id="glyph126"><path
     d="M49.8148 -43.0116l85.0026 -11.9813c3.515,-26.3436 13.5309,-45.5061 29.8586,-57.6763 21.8081,-16.1766 51.6668,-24.3405 89.5003,-24.3405 40.6682,0 72.1521,8.16388 94.3382,24.3405 22.1483,16.1766 37.1532,39.0052 44.9769,68.1835 4.49769,17.8018 6.68985,55.333 6.34969,112.48 -38.5139,-45.3171 -86.3255,-67.9946 -143.662,-67.9946 -71.3584,0 -126.691,25.6633 -165.697,77.1789 -39.1564,51.3266 -58.659,112.972 -58.659,184.821 0,49.5124 8.99539,95.1697 26.835,137.01 17.8396,41.8399 43.8431,74.0041 77.8592,96.8327 33.9784,22.8286 73.9663,34.1674 119.964,34.1674 61.1913,0 111.686,-25.0208 151.334,-75.0246l0 64.026 81.0341 0 0 -448.182c0,-80.8451 -8.20168,-137.992 -24.6806,-171.668 -16.3278,-33.676 -42.5202,-60.322 -78.0104,-79.8246 -35.6414,-19.5026 -79.4845,-29.3295 -131.491,-29.3295 -61.8338,0 -111.686,13.8332 -149.671,41.6509 -38.1737,27.6665 -56.5046,69.5064 -55.1818,125.331zm72.0009 311.361c0,-67.8434 13.5309,-117.356 40.517,-148.5 27.1751,-31.1815 61.0023,-46.8667 101.671,-46.8667 40.4793,0 74.3442,15.5341 101.822,46.5266 27.3263,30.9925 41.0084,79.6734 41.0084,146.005 0,63.3079 -14.1734,111.157 -42.3312,143.321 -28.1578,32.1642 -62.174,48.1518 -101.822,48.1518 -39.1942,0 -72.3411,-15.8364 -99.8564,-47.4715 -27.3263,-31.6728 -41.0084,-78.6908 -41.0084,-141.167z"
     id="path124" /></glyph>
   <glyph
   unicode="u"
   horiz-adv-x="556"
   id="glyph130"><path
     d="M404.981 0l0 77.1789c-40.3281,-58.848 -94.9807,-88.1775 -164.147,-88.1775 -30.5012,0 -58.9992,5.82055 -85.494,17.4994 -26.4948,11.8301 -46.1864,26.4948 -58.9992,44.1832 -12.8506,17.8018 -21.8459,39.4966 -27.024,65.1599 -3.47721,17.3105 -5.3292,44.6746 -5.3292,81.979l0 321.188 88.0263 0 0 -287.172c0,-45.8462 1.8142,-76.8388 5.3292,-92.6752 5.48038,-23.1688 17.1593,-41.1596 35.15,-54.3125 17.8396,-13.1907 39.8367,-19.8428 66.1804,-19.8428 26.3436,0 50.9865,6.65205 74.0041,20.1451 22.9798,13.5309 39.3076,32.013 48.9833,55.1818 9.48673,23.1688 14.3246,56.996 14.3246,101.179l0 277.496 88.0263 0 0 -519.011 -79.0309 0z"
     id="path128" /></glyph>
   <glyph
   unicode="S"
   horiz-adv-x="666"
   id="glyph134"><path
     d="M45.9974 229.987l89.009 8.0127c4.15753,-35.9816 13.9844,-65.5 29.4807,-88.6688 15.4963,-22.9798 39.4966,-41.6509 72.0009,-56.0133 32.5043,-14.1356 69.1662,-21.3168 109.834,-21.3168 36.1705,0 67.9946,5.3292 95.661,16.1766 27.6665,10.8096 48.1896,25.6633 61.6827,44.4856 13.4931,18.8223 20.3341,39.3454 20.3341,61.3425 0,22.3373 -6.50087,41.8399 -19.5026,58.659 -13.0017,16.6679 -34.5075,30.6524 -64.4796,42.1801 -19.2002,7.33238 -61.6827,18.9735 -127.523,34.8099 -65.8402,15.8364 -111.838,30.6902 -138.143,44.6746 -34.1674,17.9908 -59.5283,40.3281 -76.1962,66.8229 -16.8191,26.5326 -25.172,56.3535 -25.172,89.198 0,36.3217 10.356,70.1489 30.8413,101.482 20.5231,31.4839 50.3439,55.333 89.8405,71.6607 39.3454,16.3278 83.1507,24.4916 131.34,24.4916 52.9896,0 99.8186,-8.46625 140.336,-25.6633 40.4793,-16.9703 71.6607,-42.1423 93.5067,-75.4781 21.8081,-33.1847 33.487,-70.8292 35.15,-112.858l-91.0122 -6.99221c-4.83786,45.1659 -21.3168,79.3333 -49.4746,102.351 -28.1956,23.1688 -69.8465,34.6587 -124.839,34.6587 -57.3362,0 -99.1761,-10.5072 -125.331,-31.4839 -26.1925,-21.0144 -39.3454,-46.3376 -39.3454,-76.0073 0,-25.6633 9.33555,-46.8289 27.8555,-63.4969 18.3309,-16.5167 65.8024,-33.676 142.83,-51.0243 76.9899,-17.4994 129.828,-32.6555 158.478,-45.6573 41.4997,-19.1624 72.3411,-43.3139 92.1838,-72.8324 19.805,-29.3295 29.6697,-63.1567 29.6697,-101.482 0,-38.1737 -10.8474,-73.8529 -32.6933,-107.529 -21.8081,-33.6382 -52.9896,-59.8307 -93.8091,-78.5018 -40.8572,-18.6711 -86.6657,-27.9689 -137.841,-27.9689 -64.6685,0 -118.83,9.48673 -162.484,28.309 -43.8431,18.8223 -78.0104,47.1691 -102.842,85.1538 -25.0208,37.8335 -38.0225,80.6939 -39.3454,128.506z"
     id="path132" /></glyph>
   <glyph
   unicode=" "
   horiz-adv-x="277"
   id="glyph136" />
   <glyph
   unicode="."
   horiz-adv-x="277"
   id="glyph140"><path
     d="M90.9921 0l0 100 100 0 0 -100 -100 0z"
     id="path138" /></glyph>
   <glyph
   unicode="τ"
   horiz-adv-x="394"
   id="glyph144"><path
     d="M246.992 448l0 -448 -88 0 0 448 -136.976 0 0 70.9921 349.984 0 0 -70.9921 -125.008 0z"
     id="path142" /></glyph>
   <glyph
   unicode="░"
   horiz-adv-x="708"
   id="glyph148"><path
     d="M49.8268 910.173l61.0079 0 0 -61.0079 -61.0079 0 0 61.0079zm243.181 0l61.0079 0 0 -61.0079 -61.0079 0 0 61.0079zm243.654 0l61.0079 0 0 -61.0079 -61.0079 0 0 61.0079zm-365.323 -121.669l61.1654 0 0 -61.0079 -61.1654 0 0 61.0079zm243.654 0l60.6614 0 0 -61.0079 -60.6614 0 0 61.0079zm243.181 0l61.0079 0 0 -61.0079 -61.0079 0 0 61.0079zm-121.512 -121.512l61.0079 0 0 -60.9764 -61.0079 0 0 60.9764zm-243.654 0l61.0079 0 0 -60.9764 -61.0079 0 0 60.9764zm-243.181 0l61.0079 0 0 -60.9764 -61.0079 0 0 60.9764zm608.346 -121.984l61.0079 0 0 -60.6614 -61.0079 0 0 60.6614zm-243.181 0l60.6614 0 0 -60.6614 -60.6614 0 0 60.6614zm-243.654 0l61.1654 0 0 -60.6614 -61.1654 0 0 60.6614zm-121.512 -121.669l61.0079 0 0 -61.0079 -61.0079 0 0 61.0079zm243.181 0l61.0079 0 0 -61.0079 -61.0079 0 0 61.0079zm243.654 0l61.0079 0 0 -61.0079 -61.0079 0 0 61.0079zm121.512 -121.512l61.0079 0 0 -61.1654 -61.0079 0 0 61.1654zm-243.181 0l60.6614 0 0 -61.1654 -60.6614 0 0 61.1654zm-243.654 0l61.1654 0 0 -61.1654 -61.1654 0 0 61.1654zm-121.512 -121.669l61.0079 0 0 -60.9764 -61.0079 0 0 60.9764zm243.181 0l61.0079 0 0 -60.9764 -61.0079 0 0 60.9764zm243.654 0l61.0079 0 0 -60.9764 -61.0079 0 0 60.9764zm-365.323 -121.984l61.1654 0 0 -60.6614 -61.1654 0 0 60.6614zm243.654 0l60.6614 0 0 -60.6614 -60.6614 0 0 60.6614zm243.181 0l61.0079 0 0 -60.6614 -61.0079 0 0 60.6614zm-121.512 -121.669l61.0079 0 0 -61.0079 -61.0079 0 0 61.0079zm-243.654 0l61.0079 0 0 -61.0079 -61.0079 0 0 61.0079zm-243.181 0l61.0079 0 0 -61.0079 -61.0079 0 0 61.0079zm121.512 -121.512l61.1654 0 0 -61.1654 -61.1654 0 0 61.1654zm243.654 0l60.6614 0 0 -61.1654 -60.6614 0 0 61.1654zm243.181 0l61.0079 0 0 -61.1654 -61.0079 0 0 61.1654z"
     id="path146" /></glyph>
   <glyph
   unicode="ú"
   horiz-adv-x="556"
   id="glyph152"><path
     d="M405.008 0l0 77.1654c-40.3465,-58.8346 -94.9921,-88.1575 -164.189,-88.1575 -30.4882,0 -58.9921,5.82677 -85.4803,17.4803 -26.5197,11.8425 -46.1732,26.5197 -58.9921,44.189 -12.8504,17.8268 -21.8583,39.4961 -27.0236,65.1654 -3.49606,17.3228 -5.32283,44.6614 -5.32283,81.9843l0 321.165 88 0 0 -287.15c0,-45.8268 1.82677,-76.8504 5.32283,-92.6614 5.51181,-23.1811 17.1654,-41.1654 35.1811,-54.3622 17.8268,-13.1654 39.8425,-19.811 66.1732,-19.811 26.3307,0 50.9921,6.64567 73.9843,20.1575 22.9921,13.5118 39.3386,32 49.0079,55.1811 9.51181,23.1496 14.3307,56.9764 14.3307,101.165l0 277.48 88 0 0 -518.992 -78.9921 0zm-190.016 582.992l64 137.008 116 0 -106.992 -137.008 -73.0079 0z"
     id="path150" /></glyph>
   <glyph
   unicode="a"
   horiz-adv-x="556"
   id="glyph156"><path
     d="M404.981 65.0087c-32.6555,-27.8555 -64.1394,-47.3581 -94.3004,-58.848 -30.1988,-11.4899 -62.5142,-17.1593 -97.1729,-17.1593 -56.996,0 -100.839,13.8332 -131.491,41.6509 -30.6902,27.6665 -46.0352,63.1945 -46.0352,106.357 0,25.3232 5.85834,48.4919 17.3483,69.5064 11.6789,20.9766 26.835,37.6446 45.5061,50.3061 18.8223,12.6616 39.8367,22.3373 63.3457,28.8382 17.3105,4.49769 43.5029,8.84421 78.3128,13.1907 71.0182,8.31507 123.517,18.4821 157.004,30.161 0.340162,11.9813 0.491345,19.6538 0.491345,22.8286 0,35.6414 -8.31507,60.8134 -24.983,75.4781 -22.4885,19.8428 -56.0133,29.6697 -100.348,29.6697 -41.4997,0 -72.1521,-7.33238 -91.8437,-21.8081 -19.805,-14.5136 -34.3185,-40.1769 -43.8053,-77.1789l-86.0231 11.9813c7.86152,36.8509 20.6743,66.6717 38.6651,89.3492 18.0286,22.6775 44.0321,39.9879 78.0104,52.3471 33.8272,12.1702 73.3238,18.3309 117.998,18.3309 44.3344,0 80.505,-5.17802 108.323,-15.6852 27.6665,-10.5072 48.1896,-23.509 61.1913,-39.3076 13.0017,-15.8364 22.1483,-35.8682 27.4775,-60.0197 2.83468,-15.0049 4.34651,-41.9911 4.34651,-80.8451l0 -116.638c0,-81.5254 1.85199,-133.003 5.51818,-154.849 3.47721,-21.8459 10.8096,-42.6714 21.468,-62.6654l-91.9949 0c-8.80641,18.4821 -14.4758,40.1769 -17.0081,65.0087zm-6.99221 194.988c-31.9752,-13.0017 -79.9758,-24.0003 -144.002,-32.9957 -36.3217,-5.17802 -61.985,-10.9986 -76.9899,-17.4994 -15.0049,-6.50087 -26.4948,-15.9876 -34.6587,-28.3468 -8.16388,-12.4726 -12.3214,-26.3058 -12.3214,-41.6509 0,-23.1688 8.80641,-42.6714 26.646,-58.1677 17.8396,-15.4963 43.8431,-23.32 78.0104,-23.32 33.8272,0 63.9882,7.33238 90.483,22.1483 26.3436,14.6648 45.8462,34.8477 58.1677,60.322 9.52453,19.8428 14.1734,49.0211 14.1734,87.4972l0.491345 32.013z"
     id="path154" /></glyph>
   <glyph
   unicode="r"
   horiz-adv-x="333"
   id="glyph160"><path
     d="M65.0087 0l0 519.011 78.9931 0 0 -79.5223c20.1829,36.8509 38.8162,61.1913 56.0133,72.8324 17.1593,11.8301 35.9816,17.6884 56.4669,17.6884 29.6697,0 59.8685,-9.33555 90.5208,-27.8555l-31.3327 -81.1475c-21.3546,11.9813 -42.6714,17.9908 -63.9882,17.9908 -19.2002,0 -36.3595,-5.82055 -51.5156,-17.3483 -15.1561,-11.4899 -26.0035,-27.4775 -32.5043,-48.0006 -9.8269,-31.1437 -14.6648,-65.3111 -14.6648,-102.464l0 -271.185 -87.9885 0z"
     id="path158" /></glyph>
   <glyph
   unicode="÷"
   horiz-adv-x="548"
   id="glyph164"><path
     d="M224 450.016l0 100 100 0 0 -100 -100 0zm286.992 -138.016l-472.976 0 0 82.0157 472.976 0 0 -82.0157zm-286.992 -156l0 100 100 0 0 -100 -100 0z"
     id="path162" /></glyph>
   <glyph
   unicode="o"
   horiz-adv-x="556"
   id="glyph168"><path
     d="M32.9957 259.506c0,95.8122 26.6838,166.83 80.1648,212.979 44.5234,38.3627 99.0249,57.5251 163.164,57.5251 71.1694,0 129.526,-23.3578 174.843,-69.9977 45.1659,-46.5266 67.8434,-111.006 67.8434,-193.174 0,-66.6717 -10.0159,-119.019 -30.0098,-157.155 -19.994,-38.1737 -49.1723,-67.8434 -87.4972,-89.009 -38.1737,-21.1656 -80.0136,-31.6728 -125.18,-31.6728 -72.6434,0 -131.34,23.1688 -176.166,69.6576 -44.8258,46.4888 -67.1631,113.501 -67.1631,200.847zm89.9917 -0.188979c0,-66.3315 14.5136,-115.995 43.5029,-148.802 29.1783,-33.0335 65.689,-49.5124 109.834,-49.5124 43.6919,0 80.0136,16.4789 109.192,49.6636 28.9893,33.1847 43.4651,83.6798 43.4651,151.485 0,64.026 -14.6648,112.518 -43.8053,145.362 -29.1783,32.9957 -65.5,49.4746 -108.852,49.4746 -44.1454,0 -80.6561,-16.3278 -109.834,-49.1723 -28.9893,-32.8067 -43.5029,-82.3191 -43.5029,-148.5z"
     id="path166" /></glyph>
   <glyph
   unicode="°"
   horiz-adv-x="399"
   id="glyph172"><path
     d="M62.0157 592.819c0,37.3543 13.3228,69.1969 39.811,95.685 26.5197,26.3307 58.3307,39.4961 95.4961,39.4961 37.6693,0 69.6693,-13.1654 96.189,-39.4961 26.3307,-26.4882 39.4961,-58.3307 39.4961,-95.685 0,-37.4803 -13.3543,-69.4803 -39.8425,-96 -26.4882,-26.4882 -58.4882,-39.811 -95.8425,-39.811 -37.1654,0 -68.9764,13.1654 -95.4961,39.4961 -26.4882,26.4882 -39.811,58.4882 -39.811,96.315zm52.9764 -0.314961c0,-22.8346 8,-42.1732 24.189,-58.3307 16.1575,-16.1575 35.6535,-24.1575 58.6457,-24.1575 22.5197,0 41.8268,8 58.0157,24.1575 16.1575,16.1575 24.1575,35.4961 24.1575,58.3307 0,22.8346 -8,42.1732 -24.1575,58.3307 -16.189,16.1575 -35.4961,24.1575 -58.0157,24.1575 -22.9921,0 -42.4882,-8 -58.6457,-24.1575 -16.189,-16.1575 -24.189,-35.4961 -24.189,-58.3307z"
     id="path170" /></glyph>
   <glyph
   unicode="l"
   horiz-adv-x="222"
   id="glyph176"><path
     d="M63.9882 0l0 716.003 88.0263 0 0 -716.003 -88.0263 0z"
     id="path174" /></glyph>
   <glyph
   unicode="ñ"
   horiz-adv-x="556"
   id="glyph180"><path
     d="M66.0157 0l0 518.992 78.9921 0 0 -73.6693c37.9843,56.5039 93.0079,84.6929 164.819,84.6929 31.3386,0 60,-5.66929 86.1732,-16.8504 26.1732,-11.1496 45.8268,-25.9843 58.8346,-44.1575 13.0079,-18.1732 22.1732,-39.8425 27.3386,-64.8504 3.14961,-16.315 4.8189,-44.8189 4.8189,-85.4803l0 -318.677 -88 0 0 315.339c0,35.8425 -3.33858,62.6772 -10.1732,80.315 -6.80315,17.6693 -18.9921,31.8425 -36.315,42.5197 -17.3228,10.4882 -37.8268,15.8425 -61.1654,15.8425 -37.3228,0 -69.5118,-11.8425 -96.6614,-35.685 -27.1811,-23.6535 -40.6614,-68.8189 -40.6614,-135.15l0 -283.181 -88 0zm60.9764 582.016c-0.314961,33.4803 9.00787,60.1575 27.8425,80.1575 18.4882,19.8425 42.3307,29.8268 71.3386,29.8268 20.1575,0 47.6535,-8.50394 82.3307,-25.6693 19.1496,-9.51181 34.4882,-14.3307 45.8268,-14.3307 10.4882,0 18.4882,2.83465 24,8.50394 5.51181,5.51181 9.32283,16.8189 11.685,33.5118l62.9921 0c-1.00787,-37.0079 -10.3307,-64.6929 -28,-83.1811 -17.6693,-18.4882 -40,-27.8425 -67.3386,-27.8425 -20.3465,0 -47.3386,9.16535 -80.6614,27.3386 -21.8268,11.8425 -37.8268,17.6693 -48,17.6693 -10.9921,0 -20,-3.84252 -26.6772,-11.6535 -7.14961,-7.68504 -10.6772,-19.1811 -10.3307,-34.3307l-65.0079 0z"
     id="path178" /></glyph>
   <glyph
   unicode="z"
   horiz-adv-x="500"
   id="glyph184"><path
     d="M19.5026 0l0 71.6607 328.672 379.356c-37.3422,-2.00317 -70.1867,-3.02366 -98.4957,-3.02366l-210.182 0 0 71.0182 423.01 0 0 -57.8275 -281.352 -329.012 -53.8212 -61.1535c39.4966,3.32603 76.4986,4.98904 111.006,4.98904l240.154 0 0 -76.0073 -458.992 0z"
     id="path182" /></glyph>
   <glyph
   unicode="i"
   horiz-adv-x="222"
   id="glyph188"><path
     d="M65.9914 615.995l0 100.008 88.0263 0 0 -100.008 -88.0263 0zm0 -615.995l0 519.011 88.0263 0 0 -519.011 -88.0263 0z"
     id="path186" /></glyph>
  </font>
  <font
   id="FontID0"
   horiz-adv-x="667"
   font-variant="normal"
   font-style="normal"
   font-weight="400"
   horiz-origin-x="0"
   horiz-origin-y="0"
   vert-origin-x="45"
   vert-origin-y="90"
   vert-adv-y="90">
	<font-face
   font-family="Arial Unicode MS"
   id="font-face191">
	</font-face>
   <missing-glyph
   id="missing-glyph195"><path
     d="M0 0z"
     id="path193" /></missing-glyph>
   <glyph
   unicode="╣"
   horiz-adv-x="600"
   id="glyph199"><path
     d="M257.834 431.172l-268.995 0 0 84.9918 183.991 0 0 478.002 85.0036 0 0 -562.994zm170.338 -649.001l-85.3343 0 0 1212 85.3343 0 0 -1212zm-170.338 0l-85.0036 0 0 478.994 -183.991 0 0 85.0036 268.995 0 0 -563.998z"
     id="path197" /></glyph>
   <glyph
   unicode="╒"
   horiz-adv-x="600"
   id="glyph203"><path
     d="M610.828 261.164l-267.991 0 0 -478.994 -85.0036 0 0 733.993 352.995 0 0 -84.9918 -267.991 0 0 -85.0036 267.991 0 0 -85.0036z"
     id="path201" /></glyph>
   <glyph
   unicode="├"
   horiz-adv-x="600"
   id="glyph207"><path
     d="M610.828 346.168l-267.991 0 0 -563.998 -85.0036 0 0 1212 85.0036 0 0 -562.994 267.991 0 0 -85.0036z"
     id="path205" /></glyph>
   <glyph
   unicode="╝"
   horiz-adv-x="600"
   id="glyph211"><path
     d="M257.834 431.172l-268.995 0 0 84.9918 183.991 0 0 478.002 85.0036 0 0 -562.994zm170.338 -170.007l-439.333 0 0 85.0036 353.999 0 0 647.997 85.3343 0 0 -733.001z"
     id="path209" /></glyph>
   <glyph
   unicode="╚"
   horiz-adv-x="600"
   id="glyph215"><path
     d="M610.828 431.172l-267.991 0 0 562.994 85.3343 0 0 -478.002 182.657 0 0 -84.9918zm0 -170.007l-437.998 0 0 733.001 85.0036 0 0 -647.997 352.995 0 0 -85.0036z"
     id="path213" /></glyph>
   <glyph
   unicode="╫"
   horiz-adv-x="600"
   id="glyph219"><path
     d="M610.828 346.168l-182.657 0 0 -563.998 -85.3343 0 0 563.998 -85.0036 0 0 -563.998 -85.0036 0 0 563.998 -183.991 0 0 85.0036 183.991 0 0 562.994 85.0036 0 0 -562.994 85.0036 0 0 562.994 85.3343 0 0 -562.994 182.657 0 0 -85.0036z"
     id="path217" /></glyph>
   <glyph
   unicode="╗"
   horiz-adv-x="600"
   id="glyph223"><path
     d="M428.172 -217.83l-85.3343 0 0 649.001 -353.999 0 0 84.9918 439.333 0 0 -733.993zm-170.338 0l-85.0036 0 0 478.994 -183.991 0 0 85.0036 268.995 0 0 -563.998z"
     id="path221" /></glyph>
   <glyph
   unicode="│"
   horiz-adv-x="600"
   id="glyph227"><path
     d="M342.837 -217.83l-85.0036 0 0 1212 85.0036 0 0 -1212z"
     id="path225" /></glyph>
   <glyph
   unicode="┤"
   horiz-adv-x="600"
   id="glyph231"><path
     d="M342.837 -217.83l-85.0036 0 0 563.998 -268.995 0 0 85.0036 268.995 0 0 562.994 85.0036 0 0 -1212z"
     id="path229" /></glyph>
   <glyph
   unicode="┐"
   horiz-adv-x="600"
   id="glyph235"><path
     d="M342.837 -217.83l-85.0036 0 0 563.998 -268.995 0 0 85.0036 353.999 0 0 -649.001z"
     id="path233" /></glyph>
   <glyph
   unicode="║"
   horiz-adv-x="600"
   id="glyph239"><path
     d="M428.172 -217.83l-85.3343 0 0 1212 85.3343 0 0 -1212zm-170.338 0l-85.0036 0 0 1212 85.0036 0 0 -1212z"
     id="path237" /></glyph>
   <glyph
   unicode="╢"
   horiz-adv-x="600"
   id="glyph243"><path
     d="M428.172 -217.83l-85.3343 0 0 1212 85.3343 0 0 -1212zm-170.338 0l-85.0036 0 0 563.998 -183.991 0 0 85.0036 183.991 0 0 562.994 85.0036 0 0 -1212z"
     id="path241" /></glyph>
   <glyph
   unicode="∞"
   horiz-adv-x="548"
   id="glyph247"><path
     d="M528.837 256.83c0,-50.8344 -13.6653,-90.4957 -41.0077,-119.161 -24.1653,-25.6653 -54.3305,-38.5038 -90.8264,-38.5038 -50.173,0 -92.1729,35.9999 -126,107.834 -29.6692,-58.4998 -70.3344,-87.8382 -122.007,-87.8382 -37.4999,0 -68.3265,13.0039 -92.6571,38.9998 -24.1771,26.0078 -36.3424,59.3383 -36.3424,99.6728 0,41.9998 11.1732,75.6611 33.1652,100.996 21.5078,24.1653 49.1691,36.1652 83.0075,36.1652 45.6612,0 82.665,-28.6652 110.834,-85.9957 13.996,37.8306 31.4999,64.8305 52.4998,80.8343 20.9999,16.1692 49.4998,24.1653 85.3343,24.1653 42.3305,0 76.8304,-14.6692 103.665,-44.3266 26.8345,-29.6692 40.3345,-67.169 40.3345,-112.842zm-23.9999 0c0,35.1731 -10.0039,64.8423 -29.9999,88.8422 -20.0078,24.1653 -44.6691,36.1652 -74.0076,36.1652 -26.3267,0 -47.9998,-10.5 -64.8305,-31.6652 -5.83462,-7.49997 -14.5039,-24.5078 -25.996,-50.8344 -16.4999,-39.6731 -25.8306,-61.4998 -27.8385,-65.5037 18.6732,-35.9999 35.9999,-61.8305 52.3344,-77.1729 18.496,-17.1613 40.0038,-25.8306 64.4997,-25.8306 31.8306,0 57.4958,11.3385 76.8304,34.0038 19.3346,22.6653 29.0078,53.3384 29.0078,91.9957zm-269.007 23.0078c-25.6653,55.3344 -59.3265,82.9957 -100.996,82.9957 -27.6731,0 -49.8305,-9.83854 -66.1651,-29.3385 -16.4999,-19.4999 -24.6731,-44.8227 -24.6731,-75.6611 0,-29.9999 8.33855,-55.3344 25.1692,-76.0036 16.6653,-20.6692 36.3306,-30.992 58.8305,-30.992 43.8423,0 79.8422,42.992 107.834,128.999z"
     id="path245" /></glyph>
   <glyph
   unicode="╟"
   horiz-adv-x="600"
   id="glyph251"><path
     d="M610.828 346.168l-182.657 0 0 -563.998 -85.3343 0 0 1212 85.3343 0 0 -562.994 182.657 0 0 -85.0036zm-352.995 -563.998l-85.0036 0 0 1212 85.0036 0 0 -1212z"
     id="path249" /></glyph>
   <glyph
   unicode="┬"
   horiz-adv-x="600"
   id="glyph255"><path
     d="M610.828 346.168l-267.991 0 0 -563.998 -85.0036 0 0 563.998 -268.995 0 0 85.0036 621.99 0 0 -85.0036z"
     id="path253" /></glyph>
   <glyph
   unicode="┘"
   horiz-adv-x="600"
   id="glyph259"><path
     d="M342.837 346.168l-353.999 0 0 85.0036 268.995 0 0 562.994 85.0036 0 0 -647.997z"
     id="path257" /></glyph>
   <glyph
   unicode="╜"
   horiz-adv-x="600"
   id="glyph263"><path
     d="M428.172 346.168l-439.333 0 0 85.0036 183.991 0 0 562.994 85.0036 0 0 -562.994 85.0036 0 0 562.994 85.3343 0 0 -647.997z"
     id="path261" /></glyph>
   <glyph
   unicode="╖"
   horiz-adv-x="600"
   id="glyph267"><path
     d="M428.172 -217.83l-85.3343 0 0 563.998 -85.0036 0 0 -563.998 -85.0036 0 0 563.998 -183.991 0 0 85.0036 439.333 0 0 -649.001z"
     id="path265" /></glyph>
   <glyph
   unicode="┴"
   horiz-adv-x="600"
   id="glyph271"><path
     d="M610.828 346.168l-621.99 0 0 85.0036 268.995 0 0 562.994 85.0036 0 0 -562.994 267.991 0 0 -85.0036z"
     id="path269" /></glyph>
   <glyph
   unicode="╧"
   horiz-adv-x="600"
   id="glyph275"><path
     d="M610.828 431.172l-621.99 0 0 84.9918 268.995 0 0 478.002 85.0036 0 0 -478.002 267.991 0 0 -84.9918zm0 -170.007l-621.99 0 0 85.0036 621.99 0 0 -85.0036z"
     id="path273" /></glyph>
   <glyph
   unicode="╤"
   horiz-adv-x="600"
   id="glyph279"><path
     d="M610.828 431.172l-621.99 0 0 84.9918 621.99 0 0 -84.9918zm0 -170.007l-267.991 0 0 -478.994 -85.0036 0 0 478.994 -268.995 0 0 85.0036 621.99 0 0 -85.0036z"
     id="path277" /></glyph>
   <glyph
   unicode="╓"
   horiz-adv-x="600"
   id="glyph283"><path
     d="M610.828 346.168l-182.657 0 0 -563.998 -85.3343 0 0 563.998 -85.0036 0 0 -563.998 -85.0036 0 0 649.001 437.998 0 0 -85.0036z"
     id="path281" /></glyph>
   <glyph
   unicode="≤"
   horiz-adv-x="584"
   id="glyph287"><path
     d="M528.837 166.003l-473.667 202.168 0 81.9918 473.667 199.665 0 -86.8225 -376.002 -153.838 376.002 -156.165 0 -86.9997zm0 -110.834l-473.667 0 0 81.9918 473.667 0 0 -81.9918z"
     id="path285" /></glyph>
   <glyph
   unicode="═"
   horiz-adv-x="600"
   id="glyph291"><path
     d="M610.828 431.172l-621.99 0 0 84.9918 621.99 0 0 -84.9918zm0 -170.007l-621.99 0 0 85.0036 621.99 0 0 -85.0036z"
     id="path289" /></glyph>
   <glyph
   unicode="╡"
   horiz-adv-x="600"
   id="glyph295"><path
     d="M342.837 -217.83l-85.0036 0 0 478.994 -268.995 0 0 85.0036 268.995 0 0 85.0036 -268.995 0 0 84.9918 268.995 0 0 478.002 85.0036 0 0 -1212z"
     id="path293" /></glyph>
   <glyph
   unicode="╞"
   horiz-adv-x="600"
   id="glyph299"><path
     d="M610.828 261.164l-267.991 0 0 -478.994 -85.0036 0 0 1212 85.0036 0 0 -478.002 267.991 0 0 -84.9918 -267.991 0 0 -85.0036 267.991 0 0 -85.0036z"
     id="path297" /></glyph>
   <glyph
   unicode="┼"
   horiz-adv-x="600"
   id="glyph303"><path
     d="M610.828 346.168l-267.991 0 0 -563.998 -85.0036 0 0 563.998 -268.995 0 0 85.0036 268.995 0 0 562.994 85.0036 0 0 -562.994 267.991 0 0 -85.0036z"
     id="path301" /></glyph>
   <glyph
   unicode="╛"
   horiz-adv-x="600"
   id="glyph307"><path
     d="M342.837 261.164l-353.999 0 0 85.0036 268.995 0 0 85.0036 -268.995 0 0 84.9918 268.995 0 0 478.002 85.0036 0 0 -733.001z"
     id="path305" /></glyph>
   <glyph
   unicode="√"
   horiz-adv-x="600"
   id="glyph311"><path
     d="M548.832 782.17l-197.834 -801.174 -196.169 349.003 -96.661 -44.8345 -17.1732 30.8385 146.999 74.1611 157.169 -279.33 2.00787 0 165.991 671.336 35.6692 0z"
     id="path309" /></glyph>
   <glyph
   unicode="╬"
   horiz-adv-x="600"
   id="glyph315"><path
     d="M610.828 431.172l-267.991 0 0 562.994 85.3343 0 0 -478.002 182.657 0 0 -84.9918zm-352.995 0l-268.995 0 0 84.9918 183.991 0 0 478.002 85.0036 0 0 -562.994zm352.995 -170.007l-182.657 0 0 -478.994 -85.3343 0 0 563.998 267.991 0 0 -85.0036zm-352.995 -478.994l-85.0036 0 0 478.994 -183.991 0 0 85.0036 268.995 0 0 -563.998z"
     id="path313" /></glyph>
   <glyph
   unicode="ⁿ"
   horiz-adv-x="332"
   id="glyph319"><path
     d="M292.995 357.837l-60.9919 0 0 172.995c0,40.6652 -16.0039,61.0037 -47.9998,61.0037 -48.673,0 -73.169,-26.5038 -73.169,-79.665l0 -154.334 -59.9998 0 0 281.326 55.1691 0 0 -38.9998 1.8307 0c21.496,30.5078 49.8305,45.8384 85.0036,45.8384 23.1613,0 43.1573,-4.66534 59.8344,-14.1732 16.8306,-9.49603 27.6613,-22.1574 32.6574,-37.9959 5.17321,-16.0039 7.66532,-37.3345 7.66532,-64.0037l0 -171.991z"
     id="path317" /></glyph>
   <glyph
   unicode="╩"
   horiz-adv-x="600"
   id="glyph323"><path
     d="M610.828 431.172l-267.991 0 0 562.994 85.3343 0 0 -478.002 182.657 0 0 -84.9918zm-352.995 0l-268.995 0 0 84.9918 183.991 0 0 478.002 85.0036 0 0 -562.994zm352.995 -170.007l-621.99 0 0 85.0036 621.99 0 0 -85.0036z"
     id="path321" /></glyph>
   <glyph
   unicode="╘"
   horiz-adv-x="600"
   id="glyph327"><path
     d="M610.828 261.164l-352.995 0 0 733.001 85.0036 0 0 -478.002 267.991 0 0 -84.9918 -267.991 0 0 -85.0036 267.991 0 0 -85.0036z"
     id="path325" /></glyph>
   <glyph
   unicode="└"
   horiz-adv-x="600"
   id="glyph331"><path
     d="M610.828 346.168l-352.995 0 0 647.997 85.0036 0 0 -562.994 267.991 0 0 -85.0036z"
     id="path329" /></glyph>
   <glyph
   unicode="█"
   horiz-adv-x="600"
   id="glyph335"><path
     d="M-11.1614 -217.83l0 1212 621.99 0 0 -1212 -621.99 0z"
     id="path333" /></glyph>
   <glyph
   unicode="─"
   horiz-adv-x="600"
   id="glyph339"><path
     d="M610.828 339.837l-621.99 0 0 84.9918 621.99 0 0 -84.9918z"
     id="path337" /></glyph>
   <glyph
   unicode="╕"
   horiz-adv-x="600"
   id="glyph343"><path
     d="M342.837 -217.83l-85.0036 0 0 478.994 -268.995 0 0 85.0036 268.995 0 0 85.0036 -268.995 0 0 84.9918 353.999 0 0 -733.993z"
     id="path341" /></glyph>
  </font>
</defs>
</svg>
